La Mummia / The Mummy (1999)

Video
La Mummia / The Mummy (1999)

La Mummia / The Mummy (1999)
A Film Stephen Sommers
4K UHD Remux | MKV | 3840x2160 | HEVC @ 64.5 Mb/s | 02:04:49 | 5% Recovery | 56.2 GB
Audio: English DTS-HD MA @ 7482 Kbps (8 ch); Italian DTS @ 768 Kbps (6 ch)
English, Italian AC3 @ 640 Kbps (6 ch) | Subtitles: English, Italian
Genre: Action, Adventure, Fantasy

An English librarian called Evelyn Carnahan becomes interested in starting an archaeological dig at the ancient city of Hamunaptra. She gains the help of Rick O'Connell, after saving him from his death. What Evelyn, her brother Jonathan and Rick are unaware of is that another group of explorers are interested in the same dig. Unfortunately for everyone, this group ends up unleashing a curse which been laid on the dead High Priest Imhotep. Now 'The Mummy' is awake and it's going to take a lot more than guns to send him back to where he came from.

Trama
Nel 1719 a. C., a Tebe in Egitto, nasce un amore proibito tra il cattivo gran sacerdote Imhotep e Anck Su Namum, amante del Faraone. Anck si uccide e Imhotep si lascia andare a gesti disperatia Humunaptra, Città dei Monti, suscitando così lira degli dei. Gli dei gli infliggono una tremenda maledizione per la sua condotta immorale: il suo corpo sarà mummificato ma Imhotep non morirà, vivrà per sempre un'esistenza torturata a meno che qualcuno non riporti alla luce il suo cadavere in decomposizione. Le urla di dolore del disgraziato si affievoliscono man mano che il suo sarcofago viene calato giù nella fossa; la maledizione si avvera e il suo cuore cattivo e vendicativo comincia a battere nel buio con un suono sinistro e incessante.

DATA USCITA: 27 agosto 1999
GENERE: Avventura
ANNO: 1999
REGIA: Stephen Sommers
ATTORI: Brendan Fraser, Rachel Weisz, John Hannah, Arnold Vosloo, Kevin J. O'Connor, Jonathan Hyde, Oded Fehr, Stephen Dunham, Tuc Watkins, Omid Djalili, Aharon Ipalé, Arl Chase, Mohammed Afifi, Patricia Velazquez, Bernard Fox, Erick Avari
PAESE: USA
DURATA: 124 Min
DISTRIBUZIONE: UIP,


General
Unique ID : 218127706030208045473305378689775849037 (0xA419DE3A1FD63D5894214FD5CFF44E4D)
Complete name : La Mummia (1999) UHD 4K 2160p Video Untouched ITA DTS+AC3 ENG DTS HD MA+AC3 Subs.mkv
Format : Matroska
Format version : Version 4 / Version 2
File size : 56.2 GiB
Duration : 2 h 4 min
Overall bit rate : 64.5 Mb/s
Movie name : La Mummia 4K
Encoded date : UTC 2018-01-08 17:05:53
Writing application : mkvmerge v18.0.0 ('Apricity') 64-bit
Writing library : libebml v1.3.5 + libmatroska v1.4.8

Video
ID : 1
Format : HEVC
Format/Info : High Efficiency Video Coding
Format profile : Main 10@L5.1@High
Codec ID : V_MPEGH/ISO/HEVC
Duration : 2 h 4 min
Bit rate : 55.0 Mb/s
Width : 3 840 pixels
Height : 2 160 pixels
Display aspect ratio : 16:9
Frame rate mode : Constant
Frame rate : 23.976 (24000/1001) FPS
Color space : YUV
Chroma subsampling : 4:2:0 (Type 2)
Bit depth : 10 bits
Bits/(Pixel*Frame) : 0.276
Stream size : 47.9 GiB (85%)
Title : La Mummia (1999) UHD 4K 2160p Video Untouched
Default : Yes
Forced : No
Color range : Limited
Color primaries : BT.2020
Transfer characteristics : SMPTE ST 2084
Matrix coefficients : BT.2020 non-constant
Mastering display color pri : R: x=0.680000 y=0.320000, G: x=0.265000 y=0.690000, B: x=0.150000 y=0.060000, White point: x=0.312700 y=0.329000
Mastering display luminance : min: 0.0000 cd/m2, max: 1000.0000 cd/m2
Maximum Content Light Level : 1033 cd/m2
Maximum Frame-Average Light : 345 cd/m2

Audio #1
ID : 2
Format : DTS
Format/Info : Digital Theater Systems
Mode : 16
Format settings, Endianness : Big
Codec ID : A_DTS
Duration : 2 h 4 min
Bit rate mode : Constant
Bit rate : 768 kb/s
Channel(s) : 6 channels
Channel positions : Front: L C R, Side: L R, LFE
Sampling rate : 48.0 kHz
Frame rate : 93.750 FPS (512 SPF)
Bit depth : 24 bits
Compression mode : Lossy
Stream size : 685 MiB (1%)
Title : DTS 5.1
Language : Italian
Default : Yes
Forced : No

Audio #2
ID : 3
Format : AC-3
Format/Info : Audio Coding 3
Format settings, Endianness : Big
Codec ID : A_AC3
Duration : 2 h 4 min
Bit rate mode : Constant
Bit rate : 640 kb/s
Channel(s) : 6 channels
Channel positions : Front: L C R, Side: L R, LFE
Sampling rate : 48.0 kHz
Frame rate : 31.250 FPS (1536 SPF)
Bit depth : 16 bits
Compression mode : Lossy
Stream size : 571 MiB (1%)
Title : AC3 5.1
Language : Italian
Service kind : Complete Main
Default : No
Forced : No

Audio #3
ID : 4
Format : DTS
Format/Info : Digital Theater Systems
Format profile : X / MA / Core
Mode : 16
Format settings, Endianness : Big
Codec ID : A_DTS
Duration : 2 h 4 min
Bit rate mode : Variable / Variable / Constant
Bit rate : 7 482 kb/s / 7 482 kb/s / 1 509 kb/s
Channel(s) : Object Based / 8 channels / 6 channels
Channel positions : Object Based / Front: L C R, Side: L R, Back: L R, LFE / Front: L C R, Side: L R, LFE
Sampling rate : / 48.0 kHz / 48.0 kHz
Frame rate : 93.750 FPS (512 SPF)
Bit depth : / 24 bits / 24 bits
Compression mode : / Lossless / Lossy
Stream size : 6.52 GiB (12%)
Title : DTS:X 7.1
Language : English
Default : No
Forced : No

Audio #4
ID : 5
Format : AC-3
Format/Info : Audio Coding 3
Format settings, Endianness : Big
Codec ID : A_AC3
Duration : 2 h 4 min
Bit rate mode : Constant
Bit rate : 640 kb/s
Channel(s) : 6 channels
Channel positions : Front: L C R, Side: L R, LFE
Sampling rate : 48.0 kHz
Frame rate : 31.250 FPS (1536 SPF)
Bit depth : 16 bits
Compression mode : Lossy
Stream size : 571 MiB (1%)
Title : AC3 5.1
Language : English
Service kind : Complete Main
Default : No
Forced : No

Text #1
ID : 6
Format : UTF-8
Codec ID : S_TEXT/UTF8
Codec ID/Info : UTF-8 Plain Text
Duration : 1 h 55 min
Bit rate : 39 b/s
Count of elements : 1079
Stream size : 33.7 KiB (0%)
Title : Regular
Language : Italian
Default : Yes
Forced : No

Text #2
ID : 7
Format : UTF-8
Codec ID : S_TEXT/UTF8
Codec ID/Info : UTF-8 Plain Text
Duration : 1 h 55 min
Bit rate : 43 b/s
Count of elements : 1068
Stream size : 36.8 KiB (0%)
Title : Regular
Language : English
Default : No
Forced : No

Menu
00:00:00.000 : en:The Living Death
00:07:10.430 : en:Sand and Blood
00:12:19.155 : en:The Key to Hamunaptra
00:23:19.732 : en:The Expedition
00:29:03.116 : en:The Magi Strike
00:36:46.121 : en:The City of the Dead
00:43:38.908 : en:Chambers of Death
00:49:06.610 : en:Leave or Die!
00:53:33.877 : en:The Black Book
00:57:29.655 : en:The Bringer of Death
01:11:13.352 : en:A Curse in Cairo
01:18:48.307 : en:The Regeneration
01:27:29.619 : en:Evelyn's Choice
01:30:03.898 : en:Back to Hamunaptra
01:36:32.870 : en:Against the Dead
01:43:58.023 : en:The Gold Book
01:49:44.661 : en:Death of a Mortal
01:56:51.671 : en:End Titles


Screenshot (click for Enlarge)
La Mummia / The Mummy (1999)
La Mummia / The Mummy (1999)
La Mummia / The Mummy (1999)


Per scaricare Altri FILM in ITALIANO CLICCA QUI


>>> Visit My Blog Here <<<
Subscribe to My Newsletter!
If you like this release please support Developer / Publisher and BUY it.
If you'll find that my links are dead please let me know through the Private Messages.
Please DO NOT MIRROR

La Mummia / The Mummy (1999)
Password: video