Star Trek: Discovery S01E10

Serie TV
Star Trek: Discovery S01E10

Star Trek: Discovery S01E10
WEB-DL | MKV | 720x404 | Italian | H264 @ 1009 kbps | AAC @ 110 kbps | 48 min 55 s | 393 MiB
Subtitles: Italian

Star Trek: Discovery è una serie televisiva statunitense di fantascienza ideata da Bryan Fuller e Alex Kurtzman per CBS All Access. Si tratta della prima serie del franchise di Star Trek dopo la conclusione di Star Trek: Enterprise nel 2005. Ambientata dieci anni prima gli eventi della serie originale di Star Trek, Discovery segue le avventure della nave stellare USS Discovery nel suo viaggio attraverso lo spazio alla ricerca di nuovi mondi e nuove civiltà. Gretchen J. Berg e Aaron Harberts sono gli showrunner della serie, con il supporto di Akiva Goldsman.

Star.Trek.Discovery.1x10.Vostro.Malgrado.ITA.WEBMux.x264-NovaRip.mkv (392.8 MB)



General
Unique ID : 192039778958927716477446256435723157107 (0x9079841DE341DD234F9706D965D6BE73)
Complete name : ./Star.Trek.Discovery.1x10.Vostro.Malgrado.ITA.WEBMux.x264-NovaRip.mkv
Format : Matroska
Format version : Version 2
File size : 393 MiB
Duration : 48 min 55 s
Overall bit rate : 1 122 kb/s
Encoded date : UTC 2018-01-08 20:28:59
Writing application : mkvmerge v8.5.2 ('Crosses') 64bit
Writing library : libebml v1.3.3 + libmatroska v1.4.4

Video
ID : 1
Format : AVC
Format/Info : Advanced Video Codec
Format profile : High@L3.1
Format settings : CABAC / 6 Ref Frames
Format settings, CABAC : Yes
Format settings, RefFrames : 6 frames
Codec ID : V_MPEG4/ISO/AVC
Duration : 48 min 55 s
Bit rate : 1 010 kb/s
Width : 720 pixels
Height : 404 pixels
Display aspect ratio : 16:9
Frame rate mode : Constant
Frame rate : 23.976 (24000/1001) FPS
Color space : YUV
Chroma subsampling : 4:2:0
Bit depth : 8 bits
Scan type : Progressive
Bits/(Pixel*Frame) : 0.145
Stream size : 353 MiB (90%)
Writing library : x264 core 148 r2762 90a61ec
Encoding settings : cabac=1 / ref=6 / deblock=1:-2:-2 / analyse=0x3:0x133 / me=umh / subme=7 / psy=1 / psy_rd=1.00:0.00 / mixed_ref=1 / me_range=16 / chroma_me=1 / trellis=2 / 8x8dct=1 / cqm=0 / deadzone=21,11 / fast_pskip=0 / chroma_qp_offset=-2 / threads=6 / lookahead_threads=1 / sliced_threads=0 / nr=0 / decimate=1 / interlaced=0 / bluray_compat=0 / constrained_intra=0 / bframes=5 / b_pyramid=2 / b_adapt=2 / b_bias=0 / direct=3 / weightb=1 / open_gop=0 / weightp=2 / keyint=250 / keyint_min=23 / scenecut=40 / intra_refresh=0 / rc_lookahead=40 / rc=crf / mbtree=1 / crf=18.0 / qcomp=0.60 / qpmin=0 / qpmax=69 / qpstep=4 / ip_ratio=1.40 / aq=1:1.00
Language : English
Default : Yes
Forced : Yes

Audio
ID : 2
Format : AAC
Format/Info : Advanced Audio Codec
Format profile : LC
Codec ID : A_AAC-2
Duration : 48 min 55 s
Bit rate : 111 kb/s
Channel(s) : 2 channels
Channel positions : Front: L R
Sampling rate : 48.0 kHz
Frame rate : 46.875 FPS (1024 SPF)
Compression mode : Lossy
Delay relative to video : 9 ms
Stream size : 38.7 MiB (10%)
Title : ITA
Language : Italian
Default : Yes
Forced : Yes

Text
ID : 3
Format : UTF-8
Codec ID : S_TEXT/UTF8
Codec ID/Info : UTF-8 Plain Text
Duration : 48 min 18 s
Bit rate : 0 b/s
Count of elements : 14
Stream size : 228 Bytes (0%)
Title : ITA - Forced
Language : Italian
Default : Yes
Forced : Yes





Star Trek: Discovery S01E10


Star Trek: Discovery S01E10


Star Trek: Discovery S01E10


Star Trek: Discovery S01E10


Star Trek: Discovery S01E10