Star Trek: Discovery S01E10

Serie TV
Star Trek: Discovery S01E10

Star Trek: Discovery S01E10
WEB-DL | MKV | 1920x1080 | Italian | H264 @ 4020 kbps | AC-3 @ 384 kbps | 48 min 55 s | 1.47 GiB
Subtitles: Italian

Star Trek: Discovery è una serie televisiva statunitense di fantascienza ideata da Bryan Fuller e Alex Kurtzman per CBS All Access. Si tratta della prima serie del franchise di Star Trek dopo la conclusione di Star Trek: Enterprise nel 2005. Ambientata dieci anni prima gli eventi della serie originale di Star Trek, Discovery segue le avventure della nave stellare USS Discovery nel suo viaggio attraverso lo spazio alla ricerca di nuovi mondi e nuove civiltà. Gretchen J. Berg e Aaron Harberts sono gli showrunner della serie, con il supporto di Akiva Goldsman.

Star.Trek.Discovery.1x10.Vostro.Malgrado.ITA.1080p.WEBMux.DD5.1.x264-NovaRip.mkv (1.5 GB)



General
Unique ID : 13500615839421715854891168911520864834 (0xA281FC08397F67C49179FDA538A9A42)
Complete name : ./Star.Trek.Discovery.1x10.Vostro.Malgrado.ITA.1080p.WEBMux.DD5.1.x264-NovaRip.mkv
Format : Matroska
Format version : Version 2
File size : 1.47 GiB
Duration : 48 min 55 s
Overall bit rate mode : Variable
Overall bit rate : 4 304 kb/s
Encoded date : UTC 2018-01-08 20:28:23
Writing application : mkvmerge v8.5.2 ('Crosses') 64bit
Writing library : libebml v1.3.3 + libmatroska v1.4.4

Video
ID : 1
Format : AVC
Format/Info : Advanced Video Codec
Format profile : Main@L4
Format settings : CABAC / 3 Ref Frames
Format settings, CABAC : Yes
Format settings, RefFrames : 3 frames
Codec ID : V_MPEG4/ISO/AVC
Duration : 48 min 55 s
Bit rate mode : Variable
Bit rate : 4 020 kb/s
Maximum bit rate : 6 030 kb/s
Width : 1 920 pixels
Height : 1 080 pixels
Display aspect ratio : 16:9
Frame rate mode : Constant
Frame rate : 23.976 (24000/1001) FPS
Color space : YUV
Chroma subsampling : 4:2:0
Bit depth : 8 bits
Scan type : Progressive
Bits/(Pixel*Frame) : 0.081
Stream size : 1.34 GiB (91%)
Writing library : x264 core 148 r2714 2daf636
Encoding settings : cabac=1 / ref=3 / deblock=1:0:0 / analyse=0x1:0x111 / me=umh / subme=10 / psy=1 / psy_rd=1.00:0.00 / mixed_ref=1 / me_range=24 / chroma_me=1 / trellis=2 / 8x8dct=0 / cqm=0 / deadzone=21,11 / fast_pskip=1 / chroma_qp_offset=-2 / threads=8 / lookahead_threads=1 / sliced_threads=0 / nr=0 / decimate=1 / interlaced=0 / bluray_compat=0 / stitchable=1 / constrained_intra=0 / bframes=2 / b_pyramid=0 / b_adapt=2 / b_bias=0 / direct=3 / weightb=1 / open_gop=0 / weightp=2 / keyint=48 / keyint_min=25 / scenecut=0 / intra_refresh=0 / rc_lookahead=48 / rc=2pass / mbtree=1 / bitrate=4020 / ratetol=1.0 / qcomp=0.50 / qpmin=6 / qpmax=51 / qpstep=4 / cplxblur=20.0 / qblur=0.5 / vbv_maxrate=6030 / vbv_bufsize=8040 / nal_hrd=vbr / filler=0 / ip_ratio=1.40 / aq=1:1.00
Language : English
Default : Yes
Forced : Yes

Audio
ID : 2
Format : AC-3
Format/Info : Audio Coding 3
Format settings, Endianness : Big
Codec ID : A_AC3
Duration : 48 min 55 s
Bit rate mode : Constant
Bit rate : 384 kb/s
Channel(s) : 6 channels
Channel positions : Front: L C R, Side: L R, LFE
Sampling rate : 48.0 kHz
Frame rate : 31.250 FPS (1536 SPF)
Bit depth : 16 bits
Compression mode : Lossy
Stream size : 134 MiB (9%)
Title : ITA
Language : Italian
Service kind : Complete Main
Default : Yes
Forced : Yes

Text
ID : 3
Format : UTF-8
Codec ID : S_TEXT/UTF8
Codec ID/Info : UTF-8 Plain Text
Duration : 48 min 18 s
Bit rate : 0 b/s
Count of elements : 14
Stream size : 228 Bytes (0%)
Title : ITA - Forced
Language : Italian
Default : Yes
Forced : Yes





Star Trek: Discovery S01E10


Star Trek: Discovery S01E10


Star Trek: Discovery S01E10


Star Trek: Discovery S01E10


Star Trek: Discovery S01E10