Salò o le 120 giornate di Sodoma (1975)

Video
Salò o le 120 giornate di Sodoma (1975)

Salò o le 120 giornate di Sodoma (1975)
BluRay Remux | MKV | 1920x1080 | Italian | H264 @ 25915 kbps | DTS | 1 h 56 min | 22.0 GiB
Subtitles: English
Genre: Drama, Horror, War

In World War II Italy, four fascist libertines round up nine adolescent boys and girls and subject them to one hundred and twenty days of physical, mental and sexual torture.

244a1f0c056b4d809a657463124e95d8.mkv (22.0 GB)



General
Complete name : ./244a1f0c056b4d809a657463124e95d8.mkv
Format : Matroska
Format version : Version 4 / Version 2
File size : 22.0 GiB
Duration : 1 h 56 min
Overall bit rate mode : Variable
Overall bit rate : 27.0 Mb/s
Encoded date : UTC 2018-01-07 18:24:23
Writing application : mkvmerge v9.6.0 ('Slave To Your Mind') 64bit
Writing library : libebml v1.3.4 + libmatroska v1.4.5

Video
ID : 1
Format : AVC
Format/Info : Advanced Video Codec
Format profile : High@L4.1
Format settings : CABAC / 4 Ref Frames
Format settings, CABAC : Yes
Format settings, RefFrames : 4 frames
Codec ID : V_MPEG4/ISO/AVC
Duration : 1 h 56 min
Bit rate mode : Variable
Bit rate : 25.9 Mb/s
Maximum bit rate : 37.0 Mb/s
Width : 1 920 pixels
Height : 1 080 pixels
Display aspect ratio : 16:9
Frame rate mode : Constant
Frame rate : 23.976 (24000/1001) FPS
Color space : YUV
Chroma subsampling : 4:2:0
Bit depth : 8 bits
Scan type : Progressive
Bits/(Pixel*Frame) : 0.521
Stream size : 21.1 GiB (96%)
Title : MPEG-4 AVC Video / 25996 kbps / 1080p / 23.976 fps / 16:9 / High Profile 4.1
Language : Italian
Default : Yes
Forced : No

Audio
ID : 2
Format : DTS
Format/Info : Digital Theater Systems
Format profile : MA / Core
Mode : 16
Format settings, Endianness : Big
Codec ID : A_DTS
Duration : 1 h 56 min
Bit rate mode : Variable / Constant
Bit rate : 1 024 kb/s / 768 kb/s
Channel(s) : 1 channel
Channel positions : Front: C
Sampling rate : 48.0 kHz
Frame rate : 93.750 FPS (512 SPF)
Bit depth : 24 bits
Compression mode : Lossless / Lossy
Stream size : 856 MiB (4%)
Title : DTS-HD Master Audio / 1.0 / 48 kHz / 1027 kbps / 24-bit
Language : Italian
Default : Yes
Forced : No

Text
ID : 3
Format : PGS
Codec ID : S_HDMV/PGS
Codec ID/Info : Picture based subtitle format used on BDs/HD-DVDs
Duration : 1 h 56 min
Bit rate : 27.5 kb/s
Count of elements : 1871
Stream size : 22.8 MiB (0%)
Language : English
Default : Yes
Forced : No

Menu
00:00:00.000 : en:Antechamber of hell
00:04:45.301 : en:Abducted
00:09:12.151 : en:The selection
00:13:42.254 : en:Perfect specimen
00:19:58.171 : en:"Everything is ready"
00:23:30.341 : en:Circle of obsessions
00:28:34.729 : en:"Take another"
00:33:40.701 : en:How to hold it
00:40:00.288 : en:Verification
00:43:59.152 : en:Newlyweds
00:47:02.544 : en:Like a dog
00:54:01.879 : en:The passion of the minister
00:56:51.799 : en:Circle of shit
01:05:02.122 : en:"Eat!"
01:09:39.024 : en:Punishment list
01:15:36.923 : en:Story of the posterior
01:21:17.805 : en:Signora Maggi's masterpiece
01:27:05.611 : en:Circle of blood
01:33:16.064 : en:Wedding night
01:36:45.232 : en:Ezio and the maid
01:40:31.833 : en:Stories of torture
01:46:32.360 : en:The pianist
01:49:20.361 : en:The magistrate watches





Salò o le 120 giornate di Sodoma (1975)


Salò o le 120 giornate di Sodoma (1975)


Salò o le 120 giornate di Sodoma (1975)


Salò o le 120 giornate di Sodoma (1975)


Salò o le 120 giornate di Sodoma (1975)