Alessandro De Marchi, Academia Montis Regalis - Pergolesi: L'Olimpiade (2013) [BDrip]

Musica
Alessandro De Marchi, Academia Montis Regalis - Pergolesi: L'Olimpiade (2013) [BDrip]

Alessandro De Marchi, Academia Montis Regalis - Pergolesi: L'Olimpiade (2013) [BDrip]
BluRay-rip | AVC | MKV 1920x1080 / 6215 kbps / 29,970 fps | 169 min | 9,22 Gb
Audio: Italian / DTS / 6ch / 48.0 KHz / 24 bits
Classical | ArtHaus Musik | Sub: Italiano, English, Francais, Deutsch, Espanol, Japanese, Korean

With Olimpiade the famous poet Metastasio created one of the most popular librettos of the 18th century. It was set to music by over 60 baroque and classical composers including Vivaldi, Caldara, Hasse, Cimarosa and Donizetti. Pergolesi’s composition from 1735 was one of the earliest adaptations.
In the 2011 Jesi production of L’Olimpiade a large part of the auditorium is taken up by a cross-shaped platform. This is where the characters of the drama are introduced, where they elaborate their plans and express their innermost feelings, their sufferings and hopes, while the supreme ritual of the ancient Greek world, the Olympic Games, is celebrated on a distant stage: that event upon which their lives – and all prospects of happiness or otherwise – depend.
L’Olimpiade stars a superb cast of young singers, especially to be named are the ladies in the leading roles – Lyubov Petrova, Yetzabel Arias Fernández, Jennifer Rivera and Sofi a Soloviy – as well as famous Raúl Giménez in the role of King Clistene.
Alessandro De Marchi has been involved in the interpretation of early music for a long time. His orchestra, specialized on the interpretation of baroque and classical compositions on period instruments, Academia Montis Regalis, was also involved in this project.
“It is hard to imagine a happier or more enthralling presentation of [Pergolesi’s] ‘Olimpiade’ … more natural in the theater than one would think possible.” (La Stampa)

Cast:
Clistene - Raúl Giménez
Aristea - Lyubov Petrova
Argene - Yetzabel Arias Fernández
Licida - Jennifer Rivera
Megacle - Sofia Soloviy
Aminta - Antonio Lozano
Alcandro - Milena Storti
Academia Montis Regalis
Conductor - Alessandro De Marchi


General
Unique ID : 224240784993297835982182744574017560153 (0xA8B3344A324FE13AB78E2F75B96A5E59)
Complete name : C:\Olimpiade.mkv
Format : Matroska
Format version : Version 2
File size : 9.22 GiB
Duration : 2h 49mn
Overall bit rate : 7 768 Kbps
Movie name : Olimpiade
Encoded date : UTC 2018-11-07 08:11:58
Writing application : DVDFab 9.1.6.8
Writing library : libebml v0.7.8 + libmatroska v0.8.1

Video
ID : 1
Format : AVC
Format/Info : Advanced Video Codec
Format profile : High@L4.1
Format settings, CABAC : Yes
Format settings, ReFrames : 2 frames
Codec ID : V_MPEG4/ISO/AVC
Duration : 2h 49mn
Bit rate : 6 215 Kbps
Width : 1 920 pixels
Height : 1 080 pixels
Display aspect ratio : 16:9
Frame rate mode : Constant
Frame rate : 29.970 fps
Color space : YUV
Chroma subsampling : 4:2:0
Bit depth : 8 bits
Scan type : Progressive
Bits/(Pixel*Frame) : 0.100
Stream size : 7.25 GiB (79%)
Writing library : x264 core 142
Encoding settings : cabac=1 / ref=1 / deblock=1:-1:-1 / analyse=0x3:0 / me=hex / subme=5 / psy=0 / mixed_ref=0 / me_range=16 / chroma_me=1 / trellis=0 / 8x8dct=1 / cqm=0 / deadzone=21,11 / fast_pskip=1 / chroma_qp_offset=0 / threads=8 / lookahead_threads=2 / sliced_threads=0 / nr=0 / decimate=1 / interlaced=0 / bluray_compat=0 / constrained_intra=0 / bframes=2 / b_pyramid=0 / b_adapt=1 / b_bias=0 / direct=1 / weightb=1 / open_gop=0 / weightp=0 / keyint=24 / keyint_min=13 / scenecut=40 / intra_refresh=0 / rc=abr / mbtree=0 / bitrate=6215 / ratetol=1.0 / qcomp=0.60 / qpmin=0 / qpmax=69 / qpstep=4 / ip_ratio=1.40 / pb_ratio=1.30 / aq=1:1.00
Default : Yes
Forced : No
Color primaries : BT.709
Transfer characteristics : BT.709
Matrix coefficients : BT.709
Color range : Limited

Audio
ID : 2
Format : DTS
Format/Info : Digital Theater Systems
Mode : 16
Format settings, Endianness : Big
Codec ID : A_DTS
Duration : 2h 49mn
Bit rate mode : Constant
Bit rate : 1 509 Kbps
Channel(s) : 6 channels
Channel positions : Front: L C R, Side: L R, LFE
Sampling rate : 48.0 KHz
Bit depth : 24 bits
Compression mode : Lossy
Stream size : 1.79 GiB (19%)
Language : Italian
Default : Yes
Forced : No

Text #1
ID : 3
Format : VobSub
Codec ID : S_VOBSUB
Codec ID/Info : The same subtitle format used on DVDs
Language : Italian
Default : Yes
Forced : No

Text #2
ID : 4
Format : VobSub
Codec ID : S_VOBSUB
Codec ID/Info : The same subtitle format used on DVDs
Language : English
Default : No
Forced : No

Text #3
ID : 5
Format : VobSub
Codec ID : S_VOBSUB
Codec ID/Info : The same subtitle format used on DVDs
Language : German
Default : No
Forced : No

Text #4
ID : 6
Format : VobSub
Codec ID : S_VOBSUB
Codec ID/Info : The same subtitle format used on DVDs
Language : French
Default : No
Forced : No

Text #5
ID : 7
Format : VobSub
Codec ID : S_VOBSUB
Codec ID/Info : The same subtitle format used on DVDs
Language : Spanish
Default : No
Forced : No

Text #6
ID : 8
Format : VobSub
Codec ID : S_VOBSUB
Codec ID/Info : The same subtitle format used on DVDs
Language : Japanese
Default : No
Forced : No

Text #7
ID : 9
Format : VobSub
Codec ID : S_VOBSUB
Codec ID/Info : The same subtitle format used on DVDs
Language : Korean
Default : No
Forced : No

Menu
00:00:00.000 : en:Chapter 01
00:02:16.836 : en:Chapter 02
00:07:24.444 : en:Chapter 03
00:10:03.202 : en:Chapter 04
00:16:02.261 : en:Chapter 05
00:23:52.764 : en:Chapter 06
00:29:58.863 : en:Chapter 07
00:35:06.537 : en:Chapter 08
00:43:18.462 : en:Chapter 09
00:48:03.981 : en:Chapter 10
00:58:56.199 : en:Chapter 11
01:09:11.914 : en:Chapter 12
01:14:27.029 : en:Chapter 13
01:22:35.617 : en:Chapter 14
01:28:33.141 : en:Chapter 15
01:31:58.813 : en:Chapter 16
01:41:53.140 : en:Chapter 17
01:46:14.901 : en:Chapter 18
01:50:57.917 : en:Chapter 19
01:56:59.479 : en:Chapter 20
02:08:33.539 : en:Chapter 21
02:19:05.537 : en:Chapter 22
02:28:08.446 : en:Chapter 23
02:33:08.546 : en:Chapter 24
02:36:39.690 : en:Chapter 25
02:42:59.903 : en:Chapter 26
02:47:33.510 : en:Chapter 27

Alessandro De Marchi, Academia Montis Regalis - Pergolesi: L'Olimpiade (2013) [BDrip]