Matia Bazar - Melanchólia (1985) {2010, Reissue}

Musica
Matia Bazar - Melanchólia (1985) {2010, Reissue}

Matia Bazar - Melanchólia (1985) {2010, Reissue}
EAC Rip | FLAC (Img) + Cue + Log ~ 269 Mb | MP3 CBR320 ~ 114 Mb
Scans Included (JPG, 600 dpi) | RAR 5% Recovery
Synth-pop | EMI Music Italy / Virgin #50999 071878 2 7

Matia Bazar is an Italian pop band formed in Genoa in 1975. The original members of the group were Piero Cassano (keyboards), Aldo Stellita (bass), Carlo Marrale (guitar, vocals), Giancarlo Golzi (drums) and Antonella Ruggiero (vocals). They represented Italy in the 1979 Eurovision Song Contest with a song called Raggio di luna. Their major hits were Solo tu (1978), Vacanze Romane (1982) and Ti Sento (1985), which peaked the charts in Belgium and Italy. Ruggiero and Marrale, the two principal vocalists in the band, left respectively in 1989 and 1994 to pursue solo careers. Stellita died in 1998 and Colzi in 2015. Cassano, the last original member, left in May 2017. The band is currently led by Fabio Perversi aided by a new group of musicians.
~ Wiki

***************

Matia Bazar - Melanchólia (1985) {2010, Reissue}

Matia Bazar - Melanchólia (1985) {2010, Reissue}

Track List:

01. Ti Sento [4:15]
02. Via Col Vento [4:52]
03. Cose [4:58]
04. Da Qui A… [4:04]
05. Fiumi Di Parole [4:08]
06. Amami [4:06]
07. Angelina [4:51]
08. Souvenir [4:36]

Exact Audio Copy V1.3 from 2. September 2016

Отчёт EAC об извлечении, выполненном 5. июня 2018, 8:05

Matia Bazar / Melancholia

Дисковод: HL-DT-STDVDRAM GH24NSD0 Adapter: 1 ID: 0

Режим чтения : Достоверность
Использование точного потока : Да
Отключение кэша аудио : Да
Использование указателей C2 : Нет

Коррекция смещения при чтении : 6
Способность читать области Lead-in и Lead-out : Нет
Заполнение пропущенных сэмплов тишиной : Да
Удаление блоков с тишиной в начале и конце : Нет
При вычислениях CRC использовались нулевые сэмплы : Да
Интерфейс : Встроенный Win32-интерфейс для Win NT/2000

Выходной формат : Пользовательский кодировщик
Выбранный битрейт : 128 kBit/s
Качество : Высокий
Добавление ID3-тега : Нет
Утилита сжатия : C:\Program Files (x86)\Exact Audio Copy\Flac\flac.exe
Дополнительные параметры : -V -8 -T "Date=%year%" -T "Genre=%genre%" %source%


TOC извлечённого CD

Трек | Старт | Длительность | Начальный сектор | Конечный сектор
––––––––––––––––––––––––––––––––––-
1 | 0:00.33 | 4:15.00 | 33 | 19157
2 | 4:15.33 | 4:51.45 | 19158 | 41027
3 | 9:07.03 | 4:58.17 | 41028 | 63394
4 | 14:05.20 | 4:03.58 | 63395 | 81677
5 | 18:09.03 | 4:07.42 | 81678 | 100244
6 | 22:16.45 | 4:05.65 | 100245 | 118684
7 | 26:22.35 | 4:51.10 | 118685 | 140519
8 | 31:13.45 | 4:35.63 | 140520 | 161207


Характеристики диапазона извлечения и сообщения об ошибках

Выбранный диапазон

Имя файла C:\Users\khokh\OneDrive\Рабочий стол\Matia Bazar - Melancholia.wav

Пиковый уровень 90.9 %
Скорость извлечения 1.6 X
Качество диапазона 100.0 %
CRC теста 8494FD2D
CRC копии 8494FD2D
Копирование… OK

Ошибок не произошло


AccurateRip: сводка

Трек 1 : извлечено точно (доверие 3) [C17B44F8] (AR v2)
Трек 2 : извлечено точно (доверие 3) [F3B5BAF0] (AR v2)
Трек 3 : извлечено точно (доверие 3) [1A19764B] (AR v2)
Трек 4 : извлечено точно (доверие 3) [1D50F0D4] (AR v2)
Трек 5 : извлечено точно (доверие 3) [007352A2] (AR v2)
Трек 6 : извлечено точно (доверие 3) [B8E177BA] (AR v2)
Трек 7 : извлечено точно (доверие 3) [A79D0AC0] (AR v2)
Трек 8 : извлечено точно (доверие 3) [BCDBE51E] (AR v2)

Все треки извлечены точно

Конец отчёта

==== Контрольная сумма отчёта C7AA65E9916AFB043B7DDA112326764206C4B9A1150F1D15040F1F0F7EF0241D ====

foobar2000 1.3.16 / Dynamic Range Meter 1.1.1
log date: 2018-06-08 02:33:20

––––––––––––––––––––––––––––––––––––––––
Analyzed: Matia Bazar / Melancholia
––––––––––––––––––––––––––––––––––––––––

DR Peak RMS Duration Track
––––––––––––––––––––––––––––––––––––––––
DR11 -0.83 dB -15.08 dB 4:15 01-Ti Sento
DR12 -1.48 dB -16.40 dB 4:52 02-Via Col Vento
DR12 -0.87 dB -16.23 dB 4:58 03-Cose
DR13 -1.11 dB -15.68 dB 4:04 04-Da Qui A…
DR11 -2.27 dB -17.34 dB 4:08 05-Fiumi Di Parole
DR12 -1.68 dB -16.74 dB 4:06 06-Amami
DR12 -2.63 dB -16.80 dB 4:51 07-Angelina
DR12 -1.72 dB -17.82 dB 4:36 08-Souvenir
––––––––––––––––––––––––––––––––––––––––

Number of tracks: 8
Official DR value: DR12

Samplerate: 44100 Hz
Channels: 2
Bits per sample: 16
Bitrate: 897 kbps
Codec: FLAC
================================================================================

[CUETools log; Date: 08.06.2018 2:33:23; Version: 2.1.6]
Pregap length 00:00:33.
[CTDB TOCID: xVPn0SKiwWlFi5Z5i0sCy1qy154-] found.
Track | CTDB Status
1 | (27/29) Accurately ripped
2 | (28/29) Accurately ripped
3 | (29/29) Accurately ripped
4 | (29/29) Accurately ripped
5 | (29/29) Accurately ripped
6 | (29/29) Accurately ripped
7 | (29/29) Accurately ripped
8 | (29/29) Accurately ripped
[AccurateRip ID: 000b13be-0049b5ec-76086508] found.
Track [ CRC | V2 ] Status
01 [9dd1e1c8|c17b44f8] (00+03/36) Accurately ripped
02 [481e54cc|f3b5baf0] (00+03/34) Accurately ripped
03 [2bb9f0bb|1a19764b] (00+03/36) Accurately ripped
04 [bdc219af|1d50f0d4] (00+03/36) Accurately ripped
05 [7f0b5127|007352a2] (00+03/36) Accurately ripped
06 [11c2f0ba|b8e177ba] (00+03/37) Accurately ripped
07 [c7670c86|a79d0ac0] (00+03/37) Accurately ripped
08 [446b0499|bcdbe51e] (00+03/37) Accurately ripped
Offsetted by 492:
01 [f2370e8a] (06/36) Accurately ripped
02 [3f4a55f3] (06/34) Accurately ripped
03 [fe8e76ef] (06/36) Accurately ripped
04 [515d0fee] (06/36) Accurately ripped
05 [32982c6f] (06/36) Accurately ripped
06 [74c787ea] (06/37) Accurately ripped
07 [989d08ce] (06/37) Accurately ripped
08 [84dc17bc] (06/37) Accurately ripped
Offsetted by 762:
01 [07c324d4] (06/36) Accurately ripped
02 [bfbbd693] (06/34) Accurately ripped
03 [5f2fcbc5] (06/36) Accurately ripped
04 [b928d9d6] (06/36) Accurately ripped
05 [8bf159d9] (06/36) Accurately ripped
06 [627f19a7] (06/37) Accurately ripped
07 [1614d663] (06/37) Accurately ripped
08 [94590e9c] (06/37) Accurately ripped
Offsetted by 816:
01 [920c8f24] (00/36) No match (V2 was not tested)
02 [3ead08a0] (03/34) Accurately ripped
03 [aaab23d0] (03/36) Accurately ripped
04 [fce9e7fa] (03/36) Accurately ripped
05 [a0a8187c] (03/36) Accurately ripped
06 [239cc331] (03/37) Accurately ripped
07 [83fbf5aa] (03/37) Accurately ripped
08 [32923827] (03/37) Accurately ripped

Track Peak [ CRC32 ] [W/O NULL] [ LOG ]
– 90,9 [8494FD2D] [AA8F9DE7] CRC32
01 90,9 [660BE402] [089ABB9A]
02 84,3 [7AEB1F5D] [FDFF2099]
03 90,4 [92F96D18] [0649C1E5]
04 88,0 [7557A101] [BF79F724]
05 76,9 [DEF5B702] [11BC6418]
06 82,3 [DC1D088F] [0CC656F2]
07 73,8 [CCD5EAEB] [09089CD1]
08 82,0 [F0314463] [48815903]

Matia Bazar - Melanchólia (1985) {2010, Reissue}

All thanks go to Angel Station

>>> Matia Bazar in my Blog <<<

Download from icerbox.com: