Marina Rebeka - Spirito (2018) [Official Digital Download 24/96]

Vinyl e HR
Marina Rebeka - Spirito (2018) [Official Digital Download 24/96]

Marina Rebeka - Spirito (2018)
FLAC (tracks) 24-bit/96 kHz | Time - 77:55 minutes | 1.24 GB
Studio Master, Official Digital Download | Artwork: Front Cover

A masterpiece of expressiveness and virtuosic performance. This album combines Marina Rebeka’s thrilling singing, dramatic Bel Canto music based on original manuscripts, and Jader Bignamini’s nuanced conducting of the Teatro Massimo di Palermo Orchestra and Chorus. With SPIRITO, Marina Rebeka enchants us once again with her distinctive voice and irresistible personality. Raising the bar after her acclaimed album "Amor Fatale", she has handpicked some of the most challenging pieces of the dramatic Bel Canto repertoire and performed them with a formidable facility.

Her deep understanding and mastery of the style, matched by an outstanding vocal technique, shed a new and refreshing light on these timeless masterpieces.

For this album, as she did for "Amor Fatale", Marina Rebeka traveled the world in search of the original manuscripts of each piece, faithfully rendering the composers' first ideas in this recording. Additionally, and following the longstanding tradition of Bel Canto singers, she wrote her own variations of the soprano parts.

Tracklist:
01. Norma: Casta Diva… Fine al rito 09:01
02. Norma: Ah! bello a me ritorna 04:56
03. Il Pirata: Scena 03:41
04. Il Pirata: Oh! s io potessi 04:40
05. Il Pirata: Col sorriso d' innocenza… Qual suono ferale 05:12
06. Il Pirata: Oh! Sole! Ti vela di tenebre oscure 03:03
07. Maria Stuarda: Io vi rivedo alfin! 03:36
08. Maria Stuarda: Deh! Tu di un umile preghiera… Oh colpo! 05:16
09. Maria Stuarda: Di un cor che muore… Giunge il conte 05:33
10. Maria Stuarda: Ah! Se un giorno da queste ritorte 05:12
11. Anna Bolena: Piangete voi? 04:49
12. Anna Bolena: Al dolce guidami… Che mai sento 06:25
13. Anna Bolena: Coppia iniqua 03:29
14. La Vestale: Ô des infortunés 02:22
15. La Vestale: Toi, que j' implore avec effroi 05:27
16. La Vestale: Sur cet autel sacré 02:58
17. La Vestale: Impitoyables Dieux 02:15

Personnel:
Marina Rebeka (soprano)
Orchestra e Coro del Teatro Massimo di Palermo
Jader Bignamini (conductor)

foobar2000 1.3.7 / Dynamic Range Meter 1.1.1
log date: 2018-11-09 13:57:50

––––––––––––––––––––––––––––––––––––––––
Analyzed: Marina Rebeka / Spirito
––––––––––––––––––––––––––––––––––––––––

DR Peak RMS Duration Track
––––––––––––––––––––––––––––––––––––––––
DR11 -0.86 dB -17.29 dB 9:02 01-Norma: Casta Diva… Fine al rito
DR9 -0.87 dB -14.53 dB 4:57 02-Norma: Ah! bello a me ritorna
DR13 -2.09 dB -22.22 dB 3:41 03-Il Pirata: Scena
DR13 -1.72 dB -22.39 dB 4:40 04-Il Pirata: Oh! s io potessi
DR11 -1.35 dB -18.24 dB 5:12 05-Il Pirata: Col sorriso d' innocenza… Qual suono ferale
DR10 -0.96 dB -15.21 dB 3:04 06-Il Pirata: Oh! Sole! Ti vela di tenebre oscure
DR12 -3.80 dB -22.34 dB 3:36 07-Maria Stuarda: Io vi rivedo alfin!
DR10 -0.70 dB -14.79 dB 5:16 08-Maria Stuarda: Deh! Tu di un umile preghiera… Oh colpo!
DR11 -1.55 dB -17.14 dB 5:34 09-Maria Stuarda: Di un cor che muore… Giunge il conte
DR9 -0.72 dB -14.83 dB 5:12 10-Maria Stuarda: Ah! Se un giorno da queste ritorte
DR12 -0.76 dB -19.89 dB 4:49 11-Anna Bolena: Piangete voi?
DR11 -1.49 dB -18.32 dB 6:25 12-Anna Bolena: Al dolce guidami… Che mai sento
DR10 -1.17 dB -15.07 dB 3:29 13-Anna Bolena: Coppia iniqua
DR12 -3.89 dB -21.66 dB 2:23 14-La Vestale: Ô des infortunés
DR10 -1.46 dB -17.33 dB 5:27 15-La Vestale: Toi, que j' implore avec effroi
DR10 -1.28 dB -15.84 dB 2:59 16-La Vestale: Sur cet autel sacré
DR8 -0.74 dB -12.02 dB 2:16 17-La Vestale: Impitoyables Dieux
––––––––––––––––––––––––––––––––––––––––

Number of tracks: 17
Official DR value: DR11

Samplerate: 96000 Hz
Channels: 2
Bits per sample: 24
Bitrate: 2639 kbps
Codec: FLAC
================================================================================


Thanks to the Original customer.