It Takes a Killer S02E04

Serie TV
It Takes a Killer S02E04

It Takes a Killer S02E04
HDTV | MKV | 720x404 | English | H264 @ 580 kbps | AAC @ 109 kbps | 21 min 29 s | 107 MiB
Subtitles: English

Some of the world’s most notorious murders are the subject of “It Takes a Killer,” which investigates the crimes from the perspective of the killers, trying to get inside their minds and determine their motives. Leading homicide investigators and experts from such agencies as the FBI and Scotland Yard take a look at the evidence pulled from crime scenes and profile the killer’s behavior to try to piece together the details of each murder, explaining when, why and how each criminal committed the crime. For the wannabe detectives watching the show, the experts also reveal how the crime was solved — which often requires authorities to think like a killer.

it.takes.a.killer.s02e04.hdtv.x264-w4f.mkv (106.6 MB)



General
Unique ID : 232052113501303040305149934932478032171 (0xAE939C850A988D6DBC8CAD5DE3EA792B)
Complete name : ./it.takes.a.killer.s02e04.hdtv.x264-w4f.mkv
Format : Matroska
Format version : Version 4 / Version 2
File size : 107 MiB
Duration : 21 min 29 s
Overall bit rate : 694 kb/s
Encoded date : UTC 2018-06-07 02:28:29
Writing application : mkvmerge v9.7.1 ('Pandemonium') 64bit
Writing library : libebml v1.3.4 + libmatroska v1.4.5

Video
ID : 1
Format : AVC
Format/Info : Advanced Video Codec
Format profile : High@L3.1
Format settings : CABAC / 10 Ref Frames
Format settings, CABAC : Yes
Format settings, RefFrames : 10 frames
Codec ID : V_MPEG4/ISO/AVC
Duration : 21 min 29 s
Bit rate : 581 kb/s
Width : 720 pixels
Height : 404 pixels
Display aspect ratio : 16:9
Frame rate mode : Constant
Frame rate : 29.970 (30000/1001) FPS
Color space : YUV
Chroma subsampling : 4:2:0
Bit depth : 8 bits
Scan type : Progressive
Bits/(Pixel*Frame) : 0.067
Stream size : 89.3 MiB (84%)
Writing library : x264 core 155 r2901 7d0ff22
Encoding settings : cabac=1 / ref=10 / deblock=1:1:1 / analyse=0x3:0x113 / me=hex / subme=8 / psy=1 / psy_rd=0.40:0.00 / mixed_ref=1 / me_range=16 / chroma_me=1 / trellis=2 / 8x8dct=1 / cqm=0 / deadzone=21,11 / fast_pskip=1 / chroma_qp_offset=-2 / threads=12 / lookahead_threads=2 / sliced_threads=0 / nr=0 / decimate=1 / interlaced=0 / bluray_compat=0 / constrained_intra=0 / bframes=5 / b_pyramid=2 / b_adapt=1 / b_bias=0 / direct=3 / weightb=1 / open_gop=0 / weightp=2 / keyint=250 / keyint_min=25 / scenecut=40 / intra_refresh=0 / rc_lookahead=50 / rc=crf / mbtree=1 / crf=21.0 / qcomp=0.60 / qpmin=0 / qpmax=69 / qpstep=4 / ip_ratio=1.40 / aq=1:0.60
Default : Yes
Forced : No
Color range : Limited
Matrix coefficients : BT.709

Audio
ID : 2
Format : AAC
Format/Info : Advanced Audio Codec
Format profile : LC
Codec ID : A_AAC-2
Duration : 21 min 29 s
Bit rate : 110 kb/s
Channel(s) : 2 channels
Channel positions : Front: L R
Sampling rate : 48.0 kHz
Frame rate : 46.875 FPS (1024 SPF)
Compression mode : Lossy
Delay relative to video : 20 ms
Stream size : 16.9 MiB (16%)
Language : English
Default : Yes
Forced : No

Text
ID : 3
Format : UTF-8
Codec ID : S_TEXT/UTF8
Codec ID/Info : UTF-8 Plain Text
Duration : 20 min 45 s
Bit rate : 164 b/s
Count of elements : 486
Stream size : 24.9 KiB (0%)
Language : English
Default : No
Forced : No





It Takes a Killer S02E04


It Takes a Killer S02E04


It Takes a Killer S02E04


It Takes a Killer S02E04


It Takes a Killer S02E04