Great News S02E09

Serie TV
Great News S02E09

Great News S02E09
WEB-DL | MKV | 1280x720 | English | H264 @ 4047 kbps | AC-3 @ 384 kbps | 21 min 29 s | 682 MiB
Subtitles: English
Genre: Comedy

A New Jersey mom puts her relationship with her daughter to the test when she lands an internship at the same TV station where her daughter works.

Great.News.S02E09.Love.is.Dead.720p.iT.WEB-DL.DD5.1.H.264-BTN.mkv (681.7 MB)



General
Unique ID : 241828904410280281229241694332198566657 (0xB5EE8D8711333805FE56B3AAB0FFBB01)
Complete name : ./Great.News.S02E09.Love.is.Dead.720p.iT.WEB-DL.DD5.1.H.264-BTN.mkv
Format : Matroska
Format version : Version 4 / Version 2
File size : 682 MiB
Duration : 21 min 29 s
Overall bit rate : 4 433 kb/s
Encoded date : UTC 2017-12-29 09:07:09
Writing application : mkvmerge v19.0.0 ('Brave Captain') 64-bit
Writing library : libebml v1.3.5 + libmatroska v1.4.8

Video
ID : 1
Format : AVC
Format/Info : Advanced Video Codec
Format profile : High@L3.1
Format settings : 2 Ref Frames
Format settings, CABAC : No
Format settings, RefFrames : 2 frames
Codec ID : V_MPEG4/ISO/AVC
Duration : 21 min 29 s
Bit rate : 4 047 kb/s
Width : 1 280 pixels
Height : 720 pixels
Display aspect ratio : 16:9
Frame rate mode : Constant
Frame rate : 23.976 (24000/1001) FPS
Color space : YUV
Chroma subsampling : 4:2:0
Bit depth : 8 bits
Scan type : Progressive
Bits/(Pixel*Frame) : 0.183
Stream size : 622 MiB (91%)
Language : English
Default : Yes
Forced : No
Color range : Limited
Color primaries : BT.709
Transfer characteristics : BT.709
Matrix coefficients : BT.709

Audio
ID : 2
Format : AC-3
Format/Info : Audio Coding 3
Format settings, Endianness : Big
Codec ID : A_AC3
Duration : 21 min 29 s
Bit rate mode : Constant
Bit rate : 384 kb/s
Channel(s) : 6 channels
Channel positions : Front: L C R, Side: L R, LFE
Sampling rate : 48.0 kHz
Frame rate : 31.250 FPS (1536 SPF)
Bit depth : 16 bits
Compression mode : Lossy
Delay relative to video : -42 ms
Stream size : 59.0 MiB (9%)
Language : English
Service kind : Complete Main
Default : Yes
Forced : No

Text
ID : 3
Format : UTF-8
Codec ID : S_TEXT/UTF8
Codec ID/Info : UTF-8 Plain Text
Duration : 21 min 19 s
Bit rate : 117 b/s
Count of elements : 622
Stream size : 18.4 KiB (0%)
Language : English
Default : No
Forced : No





Great News S02E09


Great News S02E09


Great News S02E09


Great News S02E09


Great News S02E09