Cludio Abbado - Verdi: Macbeth (1976/2018) [Official Digital Download 24/192]

Vinyl e HR
Cludio Abbado - Verdi: Macbeth (1976/2018) [Official Digital Download 24/192]

S.Verrett, P.Cappuccilli, N.Ghiaurov, P.Domingo, Orchestra del Teatro alla Scala di Milano & Cludio Abbado - Verdi: Macbeth (1976/2018)
FLAC (tracks) 24-bit/192 kHz | Time - 153:15 minutes | 4.82 GB
Studio Master, Official Digital Download | Artwork: Digital Booklet

Abbado’s recording followed a widely acclaimed 1975 La Scala production by Giorgio Strehler. With the La Scala theatre not available, DG used the part completed Centro Telicinematografico Culturale in Milan in January 1976 to produce a warm yet detailed acoustic. Abbado’s conducting is idiomatic and vibrant and sets a theatrical benchmark for his soloists. As the queen, Shirley Verrett is smoky-toned and musically correct, perhaps lacking a little of the vocal wildness that Verdi had in mind and specified for the role. Cappuccilli as Macbeth is characterful and expressive, just the odd moment of dry tone intruding. Ghiaurov’s bass is a rock-solid tower of strength whilst Domingo as Macduff sings an eloquent lament for his lost family in a vocally commanding performance (DG Originals 449 732-2).

Tracklist:
01. Act 1 - Verdi: Macbeth - Overture (Preludio) 03:20
02. Act 1 - Coro di Streghe: Che faceste? dite su! 07:45
03. Act 1 - Due vaticini compiuti or sono 03:21
04. Act 1 - Coro di Streghe: S'allontanarono! 04:18
05. Act 1 - Vieni t'affretta…Or tutti sorgete 07:31
06. Act 1 - Scena e Marcia: Oh donna mia 03:32
07. Act 1 - Gran Scena e Duetto: Sappia la sposa mia 11:30
08. Act 1 - Scena e Sestetto - Finale I: Di destarlo per tempo il re m'impose 07:48
09. Act 1 - Verdi: Macbeth / Act 2 - Scena: Perché mi sfuggi 02:47
10. Act 1 - Verdi: Macbeth / Act 2 - Aria: La luce langue 04:27
11. Act 1 - Verdi: Macbeth / Act 2 - Coro di Sicari: Chi oso mandarvi a noi? 03:09
12. Act 1 - Verdi: Macbeth / Act 2 - Gran Scena: Studia il passo, o mio figlio! 05:13
13. Act 1 - Verdi: Macbeth / Act 2 - Finale II: Salve o re 01:53
14. Act 1 - Verdi: Macbeth / Act 2 - Si colmi il calice 06:25
15. Act 1 - Verdi: Macbeth / Act 2 - Va', spirto d'abisso! 06:45
16. Act 3 - Coro d'Introduzione - Incantesimo: Tre volte miagola la gatta in fregola 03:46
17. Act 3 - Ballo: Allegro vivicissimo - Un poco ritenuto - Allegro - Andante - Allegro - Valzer. Allegro vivacissimo - Poco piu mosso - 09:53
18. Act 3 - Finché appeli 06:58
19. Act 3 - Fuggi, regal fantasima 04:32
20. Act 3 - Coro e Ballabile: Ondine e Silfidi 04:02
21. Act 3 - Scena e Duetto - Finale III: Ove son io? 03:14
22. Act 4 - Coro di Profughi Scozzesi: Patria oppressa 06:19
23. Act 4 - O figli, O figli miei! - Ah, la paterna mano 03:40
24. Act 4 - Scena: Dove siam? 02:50
25. Act 4 - Gran Scena del Sonnambulismo: Vegliammo invan due notti 05:18
26. Act 4 - Una macchia è qui tuttora 07:51
27. Act 4 - Perfidi! All'anglo contro me v'unite! 01:45
28. Act 4 - Pietà, rispetto, amore (Macbeth) 03:34
29. Act 4 - Ella è morta! 03:42
30. Act 4 - Mal per me m'affidai ne' presagi dell'inferno! 02:31
31. Act 4 - Inno di Vittoria - Finale: Vittoria! 03:36

foobar2000 1.3.7 / Dynamic Range Meter 1.1.1
log date: 2018-11-09 14:23:13

––––––––––––––––––––––––––––––––––––––––
Analyzed: Antonio Savastano / Verdi: Macbeth (1-2)
Carlo Zardo / Verdi: Macbeth (3)
Maria Fausta Gallamini / Verdi: Macbeth (4)
Nicolai Ghiaurov / Verdi: Macbeth (5)
Orchestra Del Teatro Alla Scala Di Milano / Verdi: Macbeth (6-11)
Piero Cappuccilli / Verdi: Macbeth (12-17)
Plácido Domingo / Verdi: Macbeth (18)
Shirley Verrett / Verdi: Macbeth (19-28)
Stefania Malagu / Verdi: Macbeth (29-31)
––––––––––––––––––––––––––––––––––––––––

DR Peak RMS Duration Track
––––––––––––––––––––––––––––––––––––––––
DR12 -2.57 dB -18.26 dB 2:51 24-Macbeth / Act 3 - Verdi: Macbeth / Act 4 - Scena: Dove siam?
DR11 -2.53 dB -18.31 dB 3:37 31-Macbeth / Act 3 - Verdi: Macbeth / Act 4 - Inno di Vittoria - Finale: Vittoria!
DR14 -9.57 dB -31.38 dB 5:18 25-Macbeth / Act 3 - Verdi: Macbeth / Act 4 - Gran Scena del Sonnambulismo: Vegliammo invan due notti
DR13 -2.25 dB -22.14 dB 6:58 18-Verdi: Macbeth / Act 3 - Finché appeli
DR12 -2.77 dB -21.20 dB 5:13 12-Macbeth / Act 1 - Verdi: Macbeth / Act 2 - Gran Scena: Studia il passo, o mio figlio!
DR12 -1.44 dB -20.55 dB 3:20 01-Macbeth / Act 1 - Verdi: Macbeth - Overture (Preludio)
DR17 -3.71 dB -27.90 dB 3:09 11-Macbeth / Act 1 - Verdi: Macbeth / Act 2 - Coro di Sicari: Chi oso mandarvi a noi?
DR13 -2.04 dB -20.75 dB 3:47 16-Verdi: Macbeth / Act 3 - Coro d'Introduzione - Incantesimo: Tre volte miagola la gatta in fregola
DR13 -2.88 dB -21.36 dB 9:53 17-Verdi: Macbeth / Act 3 - Ballo: Allegro vivicissimo - Un poco ritenuto - Allegro - Andante - Allegro - Valzer. Allegro vivacissimo - Poco piu mosso -
DR17 -9.06 dB -32.07 dB 4:03 20-Verdi: Macbeth / Act 3 - Coro e Ballabile: Ondine e Silfidi
DR14 -2.98 dB -24.23 dB 6:19 22-Macbeth / Act 3 - Verdi: Macbeth / Act 4 - Coro di Profughi Scozzesi: Patria oppressa
DR14 -1.85 dB -21.90 dB 7:45 02-Verdi: Macbeth / Act 1 - Coro di Streghe: Che faceste? dite su!
DR13 -2.36 dB -21.44 dB 3:21 03-Verdi: Macbeth / Act 1 - Due vaticini compiuti or sono
DR13 -3.65 dB -22.31 dB 4:32 19-Verdi: Macbeth / Act 3 - Fuggi, regal fantasima
DR12 -4.12 dB -21.67 dB 1:46 27-Macbeth / Act 3 - Verdi: Macbeth / Act 4 - Perfidi! All'anglo contro me v'unite!
DR12 -5.88 dB -24.05 dB 3:35 28-Macbeth / Act 3 - Verdi: Macbeth / Act 4 - Pietà, rispetto, amore (Macbeth)
DR12 -2.73 dB -22.04 dB 2:31 30-Macbeth / Act 3 - Verdi: Macbeth / Act 4 - Mal per me m'affidai ne' presagi dell'inferno!
DR12 -4.69 dB -21.86 dB 3:40 23-Macbeth / Act 3 - Verdi: Macbeth / Act 4 - O figli, O figli miei! - Ah, la paterna mano
DR13 -3.10 dB -20.41 dB 4:18 04-Verdi: Macbeth / Act 1 - Coro di Streghe: S'allontanarono!
DR12 -2.90 dB -19.76 dB 7:31 05-Verdi: Macbeth / Act 1 - Vieni t'affretta…Or tutti sorgete
DR13 -3.39 dB -25.14 dB 3:32 06-Verdi: Macbeth / Act 1 - Scena e Marcia: Oh donna mia
DR14 -1.90 dB -22.78 dB 11:30 07-Verdi: Macbeth / Act 1 - Gran Scena e Duetto: Sappia la sposa mia
DR12 -1.22 dB -18.37 dB 7:48 08-Verdi: Macbeth / Act 1 - Scena e Sestetto - Finale I: Di destarlo per tempo il re m'impose
DR13 -4.11 dB -23.05 dB 2:47 09-Macbeth / Act 1 - Verdi: Macbeth / Act 2 - Scena: Perché mi sfuggi
DR12 -2.54 dB -20.43 dB 4:27 10-Macbeth / Act 1 - Verdi: Macbeth / Act 2 - Aria: La luce langue
DR13 -2.79 dB -21.59 dB 6:25 14-Macbeth / Act 1 - Verdi: Macbeth / Act 2 - Si colmi il calice
DR12 -1.92 dB -19.39 dB 6:45 15-Macbeth / Act 1 - Verdi: Macbeth / Act 2 - Va', spirto d'abisso!
DR12 -3.52 dB -19.62 dB 3:14 21-Verdi: Macbeth / Act 3 - Scena e Duetto - Finale III: Ove son io?
DR13 -1.94 dB -20.57 dB 1:53 13-Macbeth / Act 1 - Verdi: Macbeth / Act 2 - Finale II: Salve o re
DR13 -4.02 dB -23.33 dB 7:51 26-Macbeth / Act 3 - Verdi: Macbeth / Act 4 - Una macchia è qui tuttora
DR12 -2.17 dB -19.74 dB 3:43 29-Macbeth / Act 3 - Verdi: Macbeth / Act 4 - Ella è morta!
––––––––––––––––––––––––––––––––––––––––

Number of tracks: 31
Official DR value: DR13

Samplerate: 192000 Hz
Channels: 2
Bits per sample: 24
Bitrate: 4666 kbps
Codec: FLAC
================================================================================


Thanks to the Original customer.