Can't Take It Back (2017)

Video
Can't Take It Back (2017)

Can't Take It Back (2017)
WEB-DL | MKV | 1920x808 | English | H264 @ 4433 kbps | AC-3 @ 384 kbps | 1 h 28 min | 3.03 GiB
Subtitles: English, Dutch
Genre: Horror, Sci-Fi, Thriller

Following a group of students who leaves hateful comments on the page of a fellow pupil who recently committed suicide.

PAYPAL LINK DONATIE UDC4ALL.URL (213 bytes)
Cant.Take.It.Back.2017.1080p.WEB-DL.DD5.1.x264.NLSubs-QoQ.mkv (3.0 GB)
Paysafecard.URL (216 bytes)



General
Unique ID : 180354010540664418671157104302204930960 (0x87AEEB403EDE00FABEC9D28E85F84B90)
Complete name : ./can10jkjjjaqwertty/CAN'T TAKE IT BACK (2017) x264 1080p (WEB-DL) DD5.1 NLSubs -QoQ-/Cant.Take.It.Back.2017.1080p.WEB-DL.DD5.1.x264.NLSubs-QoQ.mkv
Format : Matroska
Format version : Version 4 / Version 2
File size : 3.03 GiB
Duration : 1 h 28 min
Overall bit rate : 4 915 kb/s
Encoded date : UTC 2018-01-07 18:41:39
Writing application : mkvmerge v6.3.0 ('You can't stop me!') built on Jun 27 2013 22:06:07
Writing library : libebml v1.3.0 + libmatroska v1.4.0

Video
ID : 1
Format : AVC
Format/Info : Advanced Video Codec
Format profile : High@L4
Format settings : CABAC / 5 Ref Frames
Format settings, CABAC : Yes
Format settings, RefFrames : 5 frames
Codec ID : V_MPEG4/ISO/AVC
Duration : 1 h 28 min
Bit rate : 4 433 kb/s
Width : 1 920 pixels
Height : 808 pixels
Display aspect ratio : 2.40:1
Frame rate mode : Constant
Frame rate : 23.976 FPS
Color space : YUV
Chroma subsampling : 4:2:0
Bit depth : 8 bits
Scan type : Progressive
Bits/(Pixel*Frame) : 0.119
Stream size : 2.74 GiB (90%)
Language : English
Default : Yes
Forced : No
Color range : Limited
Color primaries : BT.709
Transfer characteristics : BT.709
Matrix coefficients : BT.709

Audio
ID : 2
Format : AC-3
Format/Info : Audio Coding 3
Format settings, Endianness : Big
Codec ID : A_AC3
Duration : 1 h 28 min
Bit rate mode : Constant
Bit rate : 384 kb/s
Channel(s) : 6 channels
Channel positions : Front: L C R, Side: L R, LFE
Sampling rate : 48.0 kHz
Frame rate : 31.250 FPS (1536 SPF)
Bit depth : 16 bits
Compression mode : Lossy
Stream size : 243 MiB (8%)
Language : English
Service kind : Complete Main
Default : Yes
Forced : No

Text #1
ID : 3
Format : UTF-8
Codec ID : S_TEXT/UTF8
Codec ID/Info : UTF-8 Plain Text
Title : QoQ-Team
Language : Dutch
Default : Yes
Forced : No

Text #2
ID : 4
Format : UTF-8
Codec ID : S_TEXT/UTF8
Codec ID/Info : UTF-8 Plain Text
Language : English
Default : No
Forced : No

Menu
00:00:00.000 : en:1
00:07:31.000 : en:2
00:16:33.000 : en:3
00:23:23.000 : en:4
00:32:07.000 : en:5
00:39:14.000 : en:6
00:47:24.000 : en:7
00:54:51.000 : en:8
01:02:46.000 : en:9
01:09:28.000 : en:10
01:17:57.000 : en:11
01:26:59.000 : en:12





Can't Take It Back (2017)


Can't Take It Back (2017)


Can't Take It Back (2017)


Can't Take It Back (2017)


Can't Take It Back (2017)